[Super Mini-HD] [720p ไฟล์เล็ก] CHAPPIE (2015) จักรกลเปลี่ยนโลก [Master] [One2up] [720p] [เสียงไทยมาสเตอร์ 5.1 + ENG 5.1] [บรรยายไทย + อังกฤษ] [.MKV]

[Super Mini-HD] [720p ไฟล์เล็ก] CHAPPIE (2015) จักรกลเปลี่ยนโลก

  ฝากผลงานเอาไว้อย่างดีเยี่ยมกับ District 9 และ Elysium นีล บล็อมแคมป์ กลับมาอีกครั้งกับภาพยนตร์แอคชั่น-ไซไฟ-ทริลเลอร์ 
ไอเดียล้ำเลิศพร้อมสร้างความซึ้งปนมันส์ไปกับหุ่นยนต์ที่เปี่ยมด้วย “จิตใจ” อย่าง “แชปปี้” หุ่นยนต์ตำรวจที่ถูกอาชญากรขโมยไป 
และบรรจุโปรแกรมชนิดใหม่เข้าไป ทำให้แชปปี้กลายเป็นหุ่นยนต์ตัวแรกที่สามารถ “คิดวิเคราะห์” และ “รู้สึก” ได้เยี่ยงมนุษย์ 
ทว่าท่ามกลางพลังอันแข็งแกร่งของเหล่าหุ่นยนต์ตัวร้ายที่ครุกรุ่นขึ้น กลับเห็นแชปปี้เป็นอันตรายต่อชาติพันธุ์ 
และพวกมันก็จะไม่หยุดตามล่าเขาเพื่อคงความแข็งแกร่งของเผ่าพันธุ์และมั่นใจว่า “จุดอ่อน” จะถูกกำจัดให้สิ้นซาก!!!

Format                                   : Matroska
Format version                           : Version 4 / Version 2
File size                                : 2.20 GiB
Duration                                 : 2h 0mn
Overall bit rate                         : 2 621 Kbps
Movie name                               : {MINI}_Chappie.2015.720p.BrRip.AC3.x264.CtHts – PORSC
Encoded date                             : UTC 2010-02-22 21:41:31
Writing application                      : mkvmerge v5.9.0 ( On The Loose ) built on Dec  9 2012 15:37:01
Writing library                          : libebml v1.3.0 + libmatroska v1.4.0

Video
ID                                       : 1
Format                                   : AVC
Format/Info                              : Advanced Video Codec
Format profile                           : High@L3.1
Format settings, CABAC                   : Yes
Format settings, ReFrames                : 4 frames
Codec ID                                 : V_MPEG4/ISO/AVC
Duration                                 : 2h 0mn
Bit rate                                 : 1 288 Kbps
Nominal bit rate                         : 1 222 Kbps
Width                                    : 1 280 pixels
Height                                   : 536 pixels
Display aspect ratio                     : 2.40:1
Frame rate mode                          : Constant
Frame rate                               : 23.976 fps
Color space                              : YUV
Chroma subsampling                       : 4:2:0
Bit depth                                : 8 bits
Scan type                                : Progressive
Bits/(Pixel*Frame)                       : 0.078
Stream size                              : 1.08 GiB (49%)
Title                                    : {MINI}_Chappie.2015.720p.BrRip.AC3.x264.CtHts – PORSC
Writing library                          : x264 core 130 r2273 b3065e6
Encoding settings                        : cabac=1 / ref=3 / deblock=1:0:0 / analyse=0x3:0x113 / me=umh / subme=9 / psy=1 / psy_rd=1.00:0.00 / mixed_ref=1 / me_range=16 / chroma_me=1 / trellis=1 / 8x8dct=1 / cqm=0 / deadzone=21,11 / fast_pskip=1 / chroma_qp_offset=-2 / threads=12 / lookahead_threads=1 / sliced_threads=0 / nr=0 / decimate=1 / interlaced=0 / bluray_compat=0 / constrained_intra=0 / bframes=3 / b_pyramid=2 / b_adapt=1 / b_bias=0 / direct=1 / weightb=1 / open_gop=0 / weightp=2 / keyint=240 / keyint_min=24 / scenecut=40 / intra_refresh=0 / rc_lookahead=40 / rc=2pass / mbtree=1 / bitrate=1222 / ratetol=1.0 / qcomp=0.60 / qpmin=0 / qpmax=69 / qpstep=4 / cplxblur=20.0 / qblur=0.5 / ip_ratio=1.40 / aq=1:1.00
Language                                 : English
Default                                  : Yes
Forced                                   : No

Audio #1
ID                                       : 2
Format                                   : AC-3
Format/Info                              : Audio Coding 3
Mode extension                           : CM (complete main)
Format settings, Endianness              : Big
Codec ID                                 : A_AC3
Duration                                 : 2h 0mn
Bit rate mode                            : Constant
Bit rate                                 : 640 Kbps
Channel(s)                               : 6 channels
Channel positions                        : Front: L C R, Side: L R, LFE
Sampling rate                            : 48.0 KHz
Bit depth                                : 16 bits
Compression mode                         : Lossy
Stream size                              : 551 MiB (24%)
Title                                    : Thai BluRay Master
Language                                 : Thai
Default                                  : Yes
Forced                                   : Yes

Audio #2
ID                                       : 3
Format                                   : AC-3
Format/Info                              : Audio Coding 3
Mode extension                           : CM (complete main)
Format settings, Endianness              : Big
Codec ID                                 : A_AC3
Duration                                 : 2h 0mn
Bit rate mode                            : Constant
Bit rate                                 : 640 Kbps
Channel(s)                               : 6 channels
Channel positions                        : Front: L C R, Side: L R, LFE
Sampling rate                            : 48.0 KHz
Bit depth                                : 16 bits
Compression mode                         : Lossy
Stream size                              : 551 MiB (24%)
Title                                    : English AC3 5.1
Language                                 : English
Default                                  : No
Forced                                   : No

Text #1
ID                                       : 4
Format                                   : VobSub
Codec ID                                 : S_VOBSUB
Codec ID/Info                            : The same subtitle format used on DVDs
Title                                    : Thai 480p
Language                                 : Thai
Default                                  : No
Forced                                   : No

Text #2
ID                                       : 5
Format                                   : VobSub
Codec ID                                 : S_VOBSUB
Codec ID/Info                            : The same subtitle format used on DVDs
Title                                    : Thai 720p
Language                                 : Thai
Default                                  : No
Forced                                   : No

Text #3
ID                                       : 6
Format                                   : VobSub
Codec ID                                 : S_VOBSUB
Codec ID/Info                            : The same subtitle format used on DVDs
Title                                    : Thai 1080p BluRay Master
Language                                 : Thai
Default                                  : Yes
Forced                                   : Yes

Text #4
ID                                       : 7
Format                                   : VobSub
Codec ID                                 : S_VOBSUB
Codec ID/Info                            : The same subtitle format used on DVDs
Title                                    : Thai 1080p Out
Language                                 : Thai
Default                                  : No
Forced                                   : No

Text #5
ID                                       : 8
Format                                   : VobSub
Codec ID                                 : S_VOBSUB
Codec ID/Info                            : The same subtitle format used on DVDs
Title                                    : Thai 1080p BIG
Language                                 : Thai
Default                                  : No
Forced                                   : No

Text #6
ID                                       : 9
Format                                   : VobSub
Codec ID                                 : S_VOBSUB
Codec ID/Info                            : The same subtitle format used on DVDs
Title                                    : Thai 1080p Out [BIG]
Language                                 : Thai
Default                                  : No
Forced                                   : No

Text #7
ID                                       : 10
Format                                   : PGS
Codec ID                                 : S_HDMV/PGS
Codec ID/Info                            : The same subtitle format used on BDs/HD-DVDs
Title                                    : Thai PGS BluRay Master
Language                                 : Thai
Default                                  : No
Forced                                   : No

Text #8
ID                                       : 11
Format                                   : PGS
Codec ID                                 : S_HDMV/PGS
Codec ID/Info                            : The same subtitle format used on BDs/HD-DVDs
Title                                    : Thai PGS BluRay Master [Out]
Language                                 : Thai
Default                                  : No
Forced                                   : No

Text #9
ID                                       : 12
Format                                   : VobSub
Codec ID                                 : S_VOBSUB
Codec ID/Info                            : The same subtitle format used on DVDs
Title                                    : English
Language                                 : English
Default                                  : No
Forced                                   : No

Menu
00:00:00.000                             : en:Chapter 1
00:03:37.091                             : en:Chapter 2
00:09:55.344                             : en:Chapter 3
00:13:50.579                             : en:Chapter 4
00:21:53.729                             : en:Chapter 5
00:31:17.333                             : en:Chapter 6
00:37:19.403                             : en:Chapter 7
00:46:58.816                             : en:Chapter 8
00:54:36.773                             : en:Chapter 9
01:06:13.010                             : en:Chapter 10
01:09:57.735                             : en:Chapter 11
01:16:48.478                             : en:Chapter 12
01:24:59.636                             : en:Chapter 13
01:31:35.281                             : en:Chapter 14
01:42:37.025                             : en:Chapter 15
01:50:03.680                             : en:Chapter 16
Screenshot (แคปจากตัวไฟล์)





โหลดแบบ VIP PART เดียว
คลิก
 
ไม่ต้องรวมไฟล์ ไม่ต้องเปลี่ยนชื่อ โหลดแรงเต็มสปีดโหลดเสร็จดูได้เลย

 

สมัคร VIP เริ่มต้นแค่ 50 บาท [ Click !! ]


One2up
***:: Part :1 ::***
***:: Part :2 ::***
***:: Part :3 ::***


ดูหนังออนไลน์ คลิก http://du-de.com/
 
RARPASSWORD : mini-hd-one2up.com
 
วิธีโหลดหนัง คลิก

ภาพยนต์ในเว็บเป็นภาพยนต์ที่รวบรวมมาจากที่อื่นมาอีกที ถ้าพบเนื้อหาที่ละเมิดลิขสิทธิ์ของท่านกรุณาแจ้งมาที่ wongsatron15399@gmail.com