[Zoom V.1] [ซูมเสียงไทยโรงมาแล้ว] Pete’s Dragon (2016) พีทกับมังกรมหัศจรรย์ [Google Drive] [Rabbitfile] [HDCAM] [เสียงไทยโรง] [.MKV]


เรื่องย่อ: กว่าหลายปีที่คุณมิชชั่ม (โรเบิร์ต เรดฟอร์ด) ชายแก่นักแกะสลักไม้ สร้างความสนุกสนานให้เด็กๆด้วยเรื่องเล่าเกี่ยวกับมังกรร้ายที่อาศัยอยู่ในป่าลึกทางตะวันตกเฉียงเหนือของแปซิฟิก แต่สำหรับลูกสาวของเขา เกรซ (ไบรซ์ ดัลลัส ฮาเวิร์ด) ที่เป็นเจ้าหน้าที่ป่าไม้ เรื่องราวเหล่านี้เป็นเหมือนเรื่องเล่าหลอกเด็ก จนกระทั่งเธอได้พบกับพีท (โอ๊คส์ เฟกลีย์) พีทเป็นเด็กชายอายุ 10 ขวบที่ลึกลับ ไม่มีครอบครัว ไม่มีบ้าน ที่บอกว่าเขาอาศัยอยู่ในป่ากับมังกรยักษ์สีเขียวที่มีชื่อว่าเอเลียต และจากคำอธิบายของพีท เอเลียตมีลักษณะคล้ายกับมังกรจากเรื่องเล่าของคุณมิชชั่ม ด้วยความช่วยเหลือของนาตาลี (อูน่า ลอเรนซ์) เด็กสาวอายุ 11 ปี ผู้ซึ่งแจ็ค (เวส เบนท์ลีย์) พ่อของเธอเป็นเจ้าของโรงเลื่อยท้องถิ่น เกรซเริ่มที่จะหาคำตอบว่าพีทเป็นใครมาจากไหน และความจริงเกี่ยวกับมังกรตัวนี้ “พีทส์ ดราก้อน – พีทกับมังกรมหัศจรรย์” จากดิสนีย์ จะเข้าฉายในวันที่ 25 สิงหาคมนี้ ในโรงภาพยนตร์
Format                                   : Matroska
Format version                           : Version 4 / Version 2
File size                                : 353 MiB
Duration                                 : 1h 33mn
Overall bit rate                         : 525 Kbps
Encoded date                             : UTC 2016-08-30 04:10:51
Writing application                      : mkvmerge v9.3.0 (‘Second Sight’) 64bit
Writing library                          : libebml v1.3.4 + libmatroska v1.4.5

Video
ID                                       : 1
Format                                   : AVC
Format/Info                              : Advanced Video Codec
Format profile                           : Main@L3
Format settings, CABAC                   : Yes
Format settings, ReFrames                : 3 frames
Format settings, GOP                     : M=1, N=50
Codec ID                                 : V_MPEG4/ISO/AVC
Duration                                 : 1h 33mn
Bit rate                                 : 395 Kbps
Width                                    : 854 pixels
Height                                   : 478 pixels
Display aspect ratio                     : 16:9
Frame rate mode                          : Constant
Frame rate                               : 24.870 fps
Color space                              : YUV
Chroma subsampling                       : 4:2:0
Bit depth                                : 8 bits
Scan type                                : Progressive
Bits/(Pixel*Frame)                       : 0.039
Stream size                              : 266 MiB (75%)
Language                                 : English
Default                                  : Yes
Forced                                   : No

Audio
ID                                       : 2
Format                                   : AAC
Format/Info                              : Advanced Audio Codec
Format profile                           : LC
Codec ID                                 : A_AAC
Duration                                 : 1h 33mn
Bit rate                                 : 128 Kbps
Channel(s)                               : 2 channels
Channel positions                        : Front: L R
Sampling rate                            : 44.1 KHz
Frame rate                               : 43.066 fps (1024 spf)
Compression mode                         : Lossy
Stream size                              : 86.1 MiB (24%)
Language                                 : Thai
Default                                  : Yes
Forced                                   : No
Screenshot (แคปจากตัวไฟล์)
โหลดแบบ VIP PART เดียว
คลิก
ไม่ต้องรวมไฟล์ ไม่ต้องเปลี่ยนชื่อ โหลดแรงเต็มสปีดโหลดเสร็จดูได้เลยสมัคร VIP RabbitFile เริ่มต้นแค่ 50 บาท [ Click !! ]
ดูวิธีโหลดหนัง คลิก
กรุณาดูวิธีโหลดก่อนโหลด (ดูให้จบนะ)