[Mini-HD] Happy Inn (2005) โรงเตี๊ยม [Master] [Google Drive] [Rabbitfile] [DVD-Rip] [พากย์ไทยมาสเตอร์] [.MKV]


เรื่องย่อ
ในคืนที่มืดมิดคืนหนึ่ง เหตุการณ์ชุลมุนวุ่นวายทั้งหลายแหล่ต่างมะรุมมะตุ้ม สุมอยู่ที่โรงเตี๊ยมซอมซ่ออันห่างไกลแบบไม่ได้นัดหมาย นับจากที่มีแขกคนแรกเข้าพักแล้ว ก็มีตามมาอีกโขยงใหญ่ด้วยจุดมุ่งหมายต่างกัน แต่เพียงชั่วพริบตาเดียวทั่วทั้งโรงแรมก็ถูกย้อมเป็นสีแดงฉานด้วยเลือด! ทั้งปมการฆ่าและตัวฆาตกรยังเป็นปริศนาเพราะต่างคนต่างก็มีแผนลับๆ กันทุกฝ่าย และถ้าดันมีตัวแปรเป็นเงินมูลค่ามหาศาลล่ะ?!! ใครบ้างจะไม่อยากได้?!
แต่ก่อนที่จะได้เป็นเศรษฐี คงต้องหนีเอาตัวรอดจากเงื้อมมือฆาตกรปริศนาซะก่อน “เตี๊ยม” กันให้ดี! ก่อนจะเผ่นหนีกันป่าราบ…งานนี้ก็ตัวใครตัวมันล่ะครับ!!!
Format                                   : Matroska
Format version                           : Version 4 / Version 2
File size                                : 1.07 GiB
Duration                                 : 1 h 34 min
Overall bit rate                         : 1 612 kb/s
Encoded date                             : UTC 2013-11-07 09:21:54
Writing application                      : mkvmerge v6.5.0 (‘Isn’t she lovely’) built on Oct 20 2013 12:50:05
Writing library                          : libebml v1.3.0 + libmatroska v1.4.1

Video
ID                                       : 1
Format                                   : AVC
Format/Info                              : Advanced Video Codec
Format profile                           : High@L3
Format settings, CABAC                   : Yes
Format settings, ReFrames                : 5 frames
Codec ID                                 : V_MPEG4/ISO/AVC
Duration                                 : 1 h 34 min
Bit rate                                 : 1 132 kb/s
Width                                    : 704 pixels
Height                                   : 400 pixels
Display aspect ratio                     : 16:9
Frame rate mode                          : Constant
Frame rate                               : 25.000 FPS
Color space                              : YUV
Chroma subsampling                       : 4:2:0
Bit depth                                : 8 bits
Scan type                                : Progressive
Bits/(Pixel*Frame)                       : 0.161
Stream size                              : 769 MiB (70%)
Title                                    : www.SeeingMole.com โรงเตี๊ยม Happy Inn (2005) DVDRip [QTGMC]
Writing library                          : x264 core 140 r2377 1ca7bb9
Encoding settings                        : cabac=1 / ref=5 / deblock=1:0:0 / analyse=0x3:0x133 / me=umh / subme=9 / psy=1 / psy_rd=1.00:0.00 / mixed_ref=1 / me_range=24 / chroma_me=1 / trellis=1 / 8x8dct=1 / cqm=0 / deadzone=21,11 / fast_pskip=1 / chroma_qp_offset=-2 / threads=9 / lookahead_threads=1 / sliced_threads=0 / nr=0 / decimate=1 / interlaced=0 / bluray_compat=0 / constrained_intra=0 / bframes=5 / b_pyramid=2 / b_adapt=2 / b_bias=0 / direct=1 / weightb=1 / open_gop=0 / weightp=2 / keyint=250 / keyint_min=25 / scenecut=40 / intra_refresh=0 / rc_lookahead=40 / rc=crf / mbtree=1 / crf=18.0 / qcomp=0.60 / qpmin=0 / qpmax=69 / qpstep=4 / ip_ratio=1.40 / aq=1:1.00
Default                                  : Yes
Forced                                   : No
Color range                              : Limited
Color primaries                          : BT.601 PAL
Transfer characteristics                 : BT.470 System B, BT.470 System G
Matrix coefficients                      : BT.601

Audio
ID                                       : 2
Format                                   : AC-3
Format/Info                              : Audio Coding 3
Mode extension                           : CM (complete main)
Format settings, Endianness              : Big
Codec ID                                 : A_AC3
Duration                                 : 1 h 34 min
Bit rate mode                            : Constant
Bit rate                                 : 448 kb/s
Channel(s)                               : 6 channels
Channel positions                        : Front: L C R, Side: L R, LFE
Sampling rate                            : 48.0 kHz
Frame rate                               : 31.250 FPS (1536 spf)
Compression mode                         : Lossy
Stream size                              : 304 MiB (28%)
Title                                    : 5.1 AC3 448 www.SeeingMole.com
Language                                 : Thai
Default                                  : Yes
Forced                                   : No

Text
ID                                       : 3
Format                                   : UTF-8
Codec ID                                 : S_TEXT/UTF8
Codec ID/Info                            : UTF-8 Plain Text
Language                                 : English
Default                                  : No
Forced                                   : No

Menu
00:00:00.000                             : en:Chapter 1
00:07:56.800                             : en:Chapter 2
00:15:54.880                             : en:Chapter 3
00:22:59.200                             : en:Chapter 4
00:32:26.560                             : en:Chapter 5
00:40:17.920                             : en:Chapter 6
00:47:38.080                             : en:Chapter 7
00:55:35.680                             : en:Chapter 8
01:04:23.200                             : en:Chapter 9
01:12:07.360                             : en:Chapter 10
01:20:02.080                             : en:Chapter 11
01:31:57.760                             : en:Chapter 12
Screenshot (แคปจากตัวไฟล์)
โหลดแบบ VIP PART เดียว
คลิก
ไม่ต้องรวมไฟล์ ไม่ต้องเปลี่ยนชื่อ โหลดแรงเต็มสปีดโหลดเสร็จดูได้เลยสมัคร VIP RabbitFile เริ่มต้นแค่ 50 บาท [ Click !! ]
ดูวิธีโหลดหนัง คลิก