[Zoom] [ซูมมาแล้ว] Storks (2016) บริการนกกระสาเบบี๋เดลิเวอรี่ [Master] [Google Drive] [Rabbitfile] [เสียงไทยโรง] [.MKV]


เรื่องย่อ Storks จากผลงานผู้สร้าง The LEGO Movie ที่จะพาคุณผู้ชมเข้าไปในโรงงาน Storks บริการดีๆ ที่จะผลิตและส่งทารกโดยนกกระสา ด้วยเทคโนโลยีที่ทันสมัยที่ทั้ง เพอร์เฟ็กต์ , เป๊ะ ไร้ตำหนิ , เนี้ยบนิ้่ง, ไม่มีปัญหา ไร้จุดผิดพลาด
Format                                   : Matroska
Format version                           : Version 4 / Version 2
File size                                : 692 MiB
Duration                                 : 1 h 2 min
Overall bit rate                         : 1 541 kb/s
Encoded date                             : UTC 2016-10-04 05:23:08
Writing application                      : mkvmerge v9.4.0 (‘Knurl’) 64bit
Writing library                          : libebml v1.3.4 + libmatroska v1.4.5

Video
ID                                       : 1
Format                                   : AVC
Format/Info                              : Advanced Video Codec
Format profile                           : High@L3.1
Format settings, CABAC                   : Yes
Format settings, ReFrames                : 4 frames
Codec ID                                 : V_MPEG4/ISO/AVC
Duration                                 : 1 h 2 min
Bit rate                                 : 1 349 kb/s
Width                                    : 1 280 pixels
Height                                   : 626 pixels
Display aspect ratio                     : 2.045
Frame rate mode                          : Constant
Frame rate                               : 23.976 (24000/1001) FPS
Color space                              : YUV
Chroma subsampling                       : 4:2:0
Bit depth                                : 8 bits
Scan type                                : Progressive
Bits/(Pixel*Frame)                       : 0.070
Stream size                              : 605 MiB (87%)
Writing library                          : x264 core 133
Encoding settings                        : cabac=1 / ref=3 / deblock=1:0:0 / analyse=0x3:0x113 / me=hex / subme=7 / psy=1 / psy_rd=1.00:0.00 / mixed_ref=1 / me_range=16 / chroma_me=1 / trellis=1 / 8x8dct=1 / cqm=0 / deadzone=21,11 / fast_pskip=1 / chroma_qp_offset=-2 / threads=6 / lookahead_threads=1 / sliced_threads=0 / nr=0 / decimate=1 / interlaced=0 / bluray_compat=0 / constrained_intra=0 / bframes=3 / b_pyramid=2 / b_adapt=1 / b_bias=0 / direct=1 / weightb=1 / open_gop=0 / weightp=2 / keyint=250 / keyint_min=23 / scenecut=40 / intra_refresh=0 / rc_lookahead=40 / rc=abr / mbtree=1 / bitrate=1349 / ratetol=1.0 / qcomp=0.60 / qpmin=0 / qpmax=69 / qpstep=4 / ip_ratio=1.40 / aq=1:1.00
Default                                  : Yes
Forced                                   : No

Audio
ID                                       : 2
Format                                   : AAC
Format/Info                              : Advanced Audio Codec
Format profile                           : LC
Codec ID                                 : A_AAC
Duration                                 : 1 h 2 min
Bit rate                                 : 192 kb/s
Channel(s)                               : 2 channels
Channel positions                        : Front: L R
Sampling rate                            : 44.1 kHz
Frame rate                               : 43.066 FPS (1024 spf)
Compression mode                         : Lossy
Stream size                              : 86.2 MiB (12%)
Language                                 : Thai
Default                                  : Yes
Forced                                   : No
Screenshot (แคปจากตัวไฟล์)
โหลดแบบ VIP PART เดียว
คลิก
ไม่ต้องรวมไฟล์ ไม่ต้องเปลี่ยนชื่อ โหลดแรงเต็มสปีดโหลดเสร็จดูได้เลยสมัคร VIP RabbitFile เริ่มต้นแค่ 50 บาท [ Click !! ]
ดูวิธีโหลดหนัง คลิก
กรุณาดูวิธีโหลดก่อนโหลด (ดูให้จบนะ)