[Mini-HD] [มาสเตอร์มาแล้ว] E-SAN Indy 2 (2016) ผู้บ่าวไทบ้าน อีสานอินดี้ 2 [Master] [Google Drive] [Rabbitfile] [DVDFullRip] [พากย์ไทย บรรยายไทย] [.MKV]


เรื่องย่อ: ดิมทีแม่ใหญ่แดงอยากให้ปราณีไปอยู่กับไมเคิลเขยฝรั่ง เพื่อปากท้องและชีวิตที่ดีขึ้น แต่ด้วยปราณีตั้งท้องกับไมเคิลได้ 8 เดือน ใกล้คลอดเต็มที ไมเคิลจะพาปราณีไปคลอดและรับมรดกที่ต่างประเทศ แม่แดงเลยคิดการณ์ใหญ่ปรึกษาเพื่อนและวางแผนจัดงานบุญอุทิศส่วนกุศลให้ตัวเองและปู่ย่าตายาย เพื่อถ่วงเวลาให้ปราณีได้คลอดลูกที่บ้านเกิด โดยการไปว่าจ้างคณะหมอลำของเพื่อนรัก แต่เมื่อไปถึงคณะหมอลำก็ปิดตัวลง เหลือเพียงพ่อคูณและเคนลูกชายคนเดียวของนวลที่คลั่งไคล้ในศิลปินเกาหลี ด้วยความที่แม่แดงเป็นเพื่อนรักของเมีย พ่อคูณจึงรับปากตั้งวงหมอลำขึ้นมาอีกครั้งเพื่อรับงานแม่แดง วรรณและเพื่อนผู้สาวไทบ้านเลี้ยงควายที่ใฝ่ฝันอยากเป็นหมอลำจึงชวนกันมาสมัครเข้าร่วมวง ส่วนเคนกับแก๊งค์เกาหลีไทบ้านก็พากันฝึกเต้นคัฟเวอร์แดนซ์ ไปประกวดชิงแชมป์ระดับประเทศ แต่ด้วยเหตุการณ์บางอย่างที่ทำให้เคนต้องเปลี่ยนใจกลับมาสร้างวงหมอลำ ความรักระหว่าง เคนหนุ่มเกาหลีกับวรรณสาวหมอลำจึงก่อเกิดขึ้น และเคนจะพาวงหมอลำไปแสดงงานบุญแม่แดงได้หรือไม่ และปราณีลูกแม่แดงกับไมเคิลจะได้กลับเมืองนอกหรือไม่ ติดตามชมพวกเขาได้ในโรงภาพยนตร์ ผู้กำกับ : อุเทน ศรีริวิ นักแสดง : เต๋า ภูศิลป์ วารินรักษ์,แอน อรดี,เนยหวาน นภัสนันท์,มาร์ติน วิลเลอร์
Format                                   : Matroska
Format version                           : Version 2
File size                                : 3.89 GiB
Duration                                 : 1 h 57 min
Overall bit rate mode                    : Variable
Overall bit rate                         : 4 748 kb/s
Encoded date                             : UTC 2016-11-04 04:02:42
Writing application                      : MakeMKV v1.10.1 win(x64-release)
Writing library                          : libmakemkv v1.10.1 (1.3.3/1.4.4) win(x64-release)
Original source medium                   : DVD-Video

Video
ID                                       : 1
ID in the original source medium         : 224 (0xE0)
Format                                   : MPEG Video
Format version                           : Version 2
Format profile                           : Main@Main
Format settings, BVOP                    : Yes
Format settings, Matrix                  : Custom
Format settings, GOP                     : M=3, N=12
Codec ID                                 : V_MPEG2
Codec ID/Info                            : MPEG 1 or 2 Video
Duration                                 : 1 h 57 min
Bit rate mode                            : Variable
Bit rate                                 : 4 295 kb/s
Maximum bit rate                         : 8 200 kb/s
Width                                    : 720 pixels
Height                                   : 480 pixels
Display aspect ratio                     : 16:9
Frame rate mode                          : Variable
Frame rate                               : 23.976 (24000/1001) FPS
Standard                                 : NTSC
Color space                              : YUV
Chroma subsampling                       : 4:2:0
Bit depth                                : 8 bits
Scan type                                : Progressive
Scan order                               : 2:3 Pulldown
Compression mode                         : Lossy
Bits/(Pixel*Frame)                       : 0.518
Time code of first frame                 : 00:00:00:00
Time code source                         : Group of pictures header
GOP, Open/Closed                         : Open
GOP, Open/Closed of first frame          : Closed
Stream size                              : 3.52 GiB (90%)
Writing library                          : TMPGEnc Video Mastering Works 6 Version. 6.1.5.26
Language                                 : English
Default                                  : No
Forced                                   : No
Color primaries                          : BT.601 NTSC
Transfer characteristics                 : BT.601
Matrix coefficients                      : BT.601

Audio
ID                                       : 2
ID in the original source medium         : 189 (0xBD)-128 (0x80)
Format                                   : AC-3
Format/Info                              : Audio Coding 3
Mode extension                           : CM (complete main)
Format settings, Endianness              : Big
Codec ID                                 : A_AC3
Duration                                 : 1 h 57 min
Bit rate mode                            : Constant
Bit rate                                 : 448 kb/s
Channel(s)                               : 6 channels
Channel positions                        : Front: L C R, Side: L R, LFE
Sampling rate                            : 48.0 kHz
Frame rate                               : 31.250 FPS (1536 spf)
Compression mode                         : Lossy
Stream size                              : 375 MiB (9%)
Title                                    : Surround 5.1
Language                                 : Thai
Default                                  : Yes
Forced                                   : No

Menu
00:00:00.000                             : en:Chapter 01
00:07:27.697                             : en:Chapter 02
00:15:01.567                             : en:Chapter 03
00:29:00.271                             : en:Chapter 04
00:39:50.921                             : en:Chapter 05
00:50:43.740                             : en:Chapter 06
01:00:40.086                             : en:Chapter 07
01:08:33.392                             : en:Chapter 08
01:20:25.487                             : en:Chapter 09
01:28:15.290                             : en:Chapter 10
01:36:24.395                             : en:Chapter 11
01:47:13.927                             : en:Chapter 12
Screenshot (แคปจากตัวไฟล์)
โหลดแบบ VIP PART เดียว
คลิก
ไม่ต้องรวมไฟล์ ไม่ต้องเปลี่ยนชื่อ โหลดแรงเต็มสปีดโหลดเสร็จดูได้เลยสมัคร VIP RabbitFile เริ่มต้นแค่ 50 บาท [ Click !! ]
ดูวิธีโหลดหนัง คลิก
แก้ปัญหา Google ไดรฟ์ - เกินโควต้า



ขออภัย คุณไม่สามารถดูหรือดาวน์โหลดไฟล์นี้ได้ในขณะนี้
มีผู้ใช้ที่ได้ดูหรือดาวน์โหลดไฟล์นี้จำนวนมากเกินไป โปรดลองเข้าถึงไฟล์อีกครั้งในภายหลัง ถ้าไฟล์ที่คุณพยายามเข้าถึงมีขนาดใหญ่มาก หรือมีการแชร์กับคนจำนวนมาก อาจใช้เวลาถึง 24 ชั่วโมงจึงจะสามารถดูหรือดาวน์โหลดไฟล์ ถ้าคุณยังไม่สามารถเข้าถึงไฟล์หลังจากเวลาผ่านไป 24 ชั่วโมง โปรดติดต่อผู้ดูแลระบบของคุณ

ขั้นตอนแรกเลยมี Google ไดรฟ์ เป็นของตัวเอง สมัครคลิก https://drive.google.com


2.คัดลอกรหัสหนัง ที่ติดลิมิต ตัวอย่าง 0B3lMtSLJq6e5TEZMQ3g3Zkdnak0

เอาเฉพาะที่ขีดเส้นไว้ https://docs.google.com/a/one3up.com/uc?id=0B3lMtSLJq6e5TEZMQ3g3Zkdnak0&export=download

3.นำไปใส่แทนคำว่า ใส่รหัสหนัง

4.กดเพิ่มในไดรฟ์ของฉัน

5.กดทำสำเนา

6.กดรับลิ้งที่สามารถแชร์ได้

7.นำไปวางในแทบใหม่

8.ดาวน์โหลด ไฟล์ โดยไม่ติลิมิตละครับ