[Mini-HD] [มาสเตอร์มาใหม่] Navy Seals: Battle For New Orleans (2016) หน่วยจู่โจมทะลวงเมืองซอมบี้ [Master] [Google Drive] [Rabbitfile] [DVDFullRip] [พากย์ไทย บรรยายไทย] [.MKV]


 The Gift: นาวีซีลที่เชี่ยวชาญการรบอย่างสูงทีมหนึ่งพบว่าภารกิจของพวกเขาต้องเผชิญหน้ากับการต่อสู้ครั้งใหญ่
เพื่อเอาชีวิตรอดกับพวกซอมบี้ที่เกิดจากเชื้อไวรัสระบาดในนิวออร์ลีนส์ และต้องปกป้องเมืองให้พ้นจากหายนะความตาย
ที่น่ากลัวที่สุดจากกองทัพซอมบี้พันธุ์นรก!!!
Format                                   : Matroska
Format version                           : Version 2
File size                                : 3.75 GiB
Duration                                 : 1 h 31 min
Overall bit rate mode                    : Variable
Overall bit rate                         : 5 858 kb/s
Encoded date                             : UTC 2016-11-04 04:51:58
Writing application                      : MakeMKV v1.10.1 win(x64-release)
Writing library                          : libmakemkv v1.10.1 (1.3.3/1.4.4) win(x64-release)
Original source medium                   : DVD-Video

Video
ID                                       : 1
ID in the original source medium         : 224 (0xE0)
Format                                   : MPEG Video
Format version                           : Version 2
Format profile                           : Main@Main
Format settings, BVOP                    : Yes
Format settings, Matrix                  : Custom
Format settings, GOP                     : M=3, N=12
Codec ID                                 : V_MPEG2
Codec ID/Info                            : MPEG 1 or 2 Video
Duration                                 : 1 h 31 min
Bit rate mode                            : Variable
Bit rate                                 : 5 080 kb/s
Maximum bit rate                         : 9 200 kb/s
Width                                    : 720 pixels
Height                                   : 480 pixels
Display aspect ratio                     : 16:9
Frame rate mode                          : Variable
Frame rate                               : 23.976 (24000/1001) FPS
Standard                                 : NTSC
Color space                              : YUV
Chroma subsampling                       : 4:2:0
Bit depth                                : 8 bits
Scan type                                : Progressive
Scan order                               : 2:3 Pulldown
Compression mode                         : Lossy
Bits/(Pixel*Frame)                       : 0.613
Time code of first frame                 : 00:00:00:00
Time code source                         : Group of pictures header
Stream size                              : 3.25 GiB (87%)
Writing library                          : TMPGEnc Video Mastering Works 5 Version. 5.0.5.32
Language                                 : English
Default                                  : No
Forced                                   : No
Color primaries                          : BT.601 NTSC
Transfer characteristics                 : BT.601
Matrix coefficients                      : BT.601

Audio #1
ID                                       : 2
ID in the original source medium         : 189 (0xBD)-128 (0x80)
Format                                   : AC-3
Format/Info                              : Audio Coding 3
Mode extension                           : CM (complete main)
Format settings, Endianness              : Big
Codec ID                                 : A_AC3
Duration                                 : 1 h 31 min
Bit rate mode                            : Constant
Bit rate                                 : 384 kb/s
Channel(s)                               : 6 channels
Channel positions                        : Front: L C R, Side: L R, LFE
Sampling rate                            : 48.0 kHz
Frame rate                               : 31.250 FPS (1536 spf)
Bit depth                                : 16 bits
Compression mode                         : Lossy
Stream size                              : 252 MiB (7%)
Title                                    : Surround 5.1
Language                                 : Thai
Default                                  : Yes
Forced                                   : No

Audio #2
ID                                       : 3
ID in the original source medium         : 189 (0xBD)-129 (0x81)
Format                                   : AC-3
Format/Info                              : Audio Coding 3
Mode extension                           : CM (complete main)
Format settings, Endianness              : Big
Codec ID                                 : A_AC3
Duration                                 : 1 h 31 min
Bit rate mode                            : Constant
Bit rate                                 : 384 kb/s
Channel(s)                               : 6 channels
Channel positions                        : Front: L C R, Side: L R, LFE
Sampling rate                            : 48.0 kHz
Frame rate                               : 31.250 FPS (1536 spf)
Bit depth                                : 16 bits
Compression mode                         : Lossy
Stream size                              : 252 MiB (7%)
Title                                    : Surround 5.1
Language                                 : English
Default                                  : No
Forced                                   : No

Text
ID                                       : 4
ID in the original source medium         : 189 (0xBD)-32 (0x20)
Format                                   : VobSub
Codec ID                                 : S_VOBSUB
Codec ID/Info                            : Picture based subtitle format used on DVDs
Duration                                 : 1 h 24 min
Bit rate                                 : 4 480 b/s
Count of elements                        : 837
Stream size                              : 2.71 MiB (0%)
Language                                 : Thai
Default                                  : Yes
Forced                                   : No

Menu
00:00:00.000                             : en:Chapter 01
00:05:55.355                             : en:Chapter 02
00:13:04.066                             : en:Chapter 03
00:20:17.382                             : en:Chapter 04
00:25:40.622                             : en:Chapter 05
00:34:39.744                             : en:Chapter 06
00:43:55.966                             : en:Chapter 07
00:54:32.552                             : en:Chapter 08
01:06:17.840                             : en:Chapter 09
01:13:40.282                             : en:Chapter 10
01:22:19.935                             : en:Chapter 11
01:26:41.029                             : en:Chapter 12
Screenshot (แคปจากตัวไฟล์)
โหลดแบบ VIP PART เดียว
คลิก
ไม่ต้องรวมไฟล์ ไม่ต้องเปลี่ยนชื่อ โหลดแรงเต็มสปีดโหลดเสร็จดูได้เลยสมัคร VIP RabbitFile เริ่มต้นแค่ 50 บาท [ Click !! ]
ดูวิธีโหลดหนัง คลิก
กรุณาดูวิธีโหลดก่อนโหลด (ดูให้จบนะ)