[Mini-HD] [ภาพชัดระดับ Master มาแล้ว] Ghost in the Shell (2017) โกสต์ อิน เดอะ เชลล์ [Google Drive] [Cloud2Free] [1080p] [พากย์ไทยโรง 2.0 + เสียงอังกฤษ 2.0] [ซับเกาหลีฝัง] [.MKV]


Ghost in the Shell สร้างจากการ์ตูนไซไฟระดับนานาชาติ เรื่องราวการปฏิบัติการในเซ็คชั่น 9 ของไซบอร์กสาว เพื่อหยุดยั้งอาชญากรรมและกลุ่มหัวรุนแรง โดยต้องเผชิญกับศัตรูที่มีเป้าหมายขัดขวางความก้าวหน้าทางเทคโนโลยีไซเบอร์ของฮันกา โรโบติค

General
Unique ID                   : 189065126925583349075353648305855368998 (0x8E3C9E72C17FF5EFA77D8986A7598F26)
Complete name               : Ghost.In.The.Shell.2017.1080p.KORSUB.HDRip.x264.AC32.0.ThaiRong-CPT.mkv
Format                      : Matroska
Format version              : Version 4 / Version 2
File size                   : 3.76 GiB
Duration                    : 1 h 47 min
Overall bit rate            : 5 024 kb/s
Movie name                  : Modified By Captain@Siambit
Encoded date                : UTC 2017-05-02 19:50:56
Writing application         : mkvmerge v10.0.0 ( To Drown In You ) 64bit
Writing library             : libebml v1.3.4 + libmatroska v1.4.5

Video
ID                          : 1
Format                      : AVC
Format/Info                 : Advanced Video Codec
Format profile              : High@L4.1
Format settings, CABAC      : Yes
Format settings, ReFrames   : 4 frames
Codec ID                    : V_MPEG4/ISO/AVC
Duration                    : 1 h 47 min
Bit rate                    : 4 605 kb/s
Width                       : 1 920 pixels
Height                      : 1 080 pixels
Display aspect ratio        : 16:9
Frame rate mode             : Constant
Frame rate                  : 30.000 FPS
Color space                 : YUV
Chroma subsampling          : 4:2:0
Bit depth                   : 8 bits
Scan type                   : Progressive
Bits/(Pixel*Frame)          : 0.074
Stream size                 : 3.44 GiB (92%)
Title                       : Ghost.In.The.Shell.2017.1080p.KORSUB.HDRip.x264.AC32.0.ThaiRong-CPT
Writing library             : x264 core 130 r2273 b3065e6
Encoding settings           : cabac=1 / ref=3 / deblock=1:0:0 / analyse=0x3:0x113 / me=hex / subme=7 / psy=1 / psy_rd=1.00:0.00 / mixed_ref=1 / me_range=16 / chroma_me=1 / trellis=1 / 8x8dct=1 / cqm=0 / deadzone=21,11 / fast_pskip=1 / chroma_qp_offset=-2 / threads=6 / lookahead_threads=1 / sliced_threads=0 / nr=0 / decimate=1 / interlaced=0 / bluray_compat=0 / constrained_intra=0 / bframes=3 / b_pyramid=2 / b_adapt=1 / b_bias=0 / direct=1 / weightb=1 / open_gop=0 / weightp=2 / keyint=300 / keyint_min=30 / scenecut=40 / intra_refresh=0 / rc_lookahead=40 / rc=2pass / mbtree=1 / bitrate=4605 / ratetol=1.0 / qcomp=0.60 / qpmin=0 / qpmax=69 / qpstep=4 / cplxblur=20.0 / qblur=0.5 / vbv_maxrate=62500 / vbv_bufsize=78125 / nal_hrd=none / ip_ratio=1.40 / aq=1:1.00
Language                    : English
Default                     : Yes
Forced                      : No
Color range                 : Limited
Color primaries             : BT.709
Transfer characteristics    : BT.709
Matrix coefficients         : BT.709

Audio #1
ID                          : 2
Format                      : AC-3
Format/Info                 : Audio Coding 3
Format settings, Endianness : Big
Codec ID                    : A_AC3
Duration                    : 1 h 47 min
Bit rate mode               : Constant
Bit rate                    : 192 kb/s
Channel(s)                  : 2 channels
Channel positions           : Front: L R
Sampling rate               : 48.0 kHz
Frame rate                  : 31.250 FPS (1536 spf)
Bit depth                   : 16 bits
Compression mode            : Lossy
Stream size                 : 147 MiB (4%)
Title                       : AC-3 THR 2.0 By Captain
Language                    : Thai
Service kind                : Complete Main
Default                     : Yes
Forced                      : No

Audio #2
ID                          : 3
Format                      : AAC
Format/Info                 : Advanced Audio Codec
Format profile              : LC
Codec ID                    : A_AAC
Duration                    : 1 h 47 min
Bit rate                    : 224 kb/s
Channel(s)                  : 2 channels
Channel positions           : Front: L R
Sampling rate               : 48.0 kHz
Frame rate                  : 46.875 FPS (1024 spf)
Compression mode            : Lossy
Stream size                 : 171 MiB (4%)
Title                       : Ghost.In.The.Shell.2017.1080p.KORSUB.HDRip.x264.AAC2.0-STUTTERSHIT
Language                    : English
Default                     : No
Forced                      : No

Text
ID                          : 4
Format                      : UTF-8
Codec ID                    : S_TEXT/UTF8
Codec ID/Info               : UTF-8 Plain Text
Duration                    : 1 h 32 min
Bit rate                    : 36 b/s
Count of elements           : 878
Stream size                 : 24.4 KiB (0%)
Language                    : English
Default                     : Yes
Forced                      : No
Screenshot (แคปจากตัวไฟล์)

[vipcontent]
โหลดแบบ VIP PART เดียว
คลิก
ไม่ต้องรวมไฟล์ ไม่ต้องเปลี่ยนชื่อ โหลดแรงเต็มสปีดโหลดเสร็จดูได้เลยสมัคร VIP Download เริ่มต้นแค่ 50 บาท [ Click !! ]

[/vipcontent]

Google ไดรฟ์
***:: Part :1 ::***
***:: Part :2 ::***
***:: Part :3 ::***
***:: Part :4 ::***
***:: Part :5 ::***
RAR Password one3up.com
ดูวิธีโหลดหนังฟรี คลิก