[Mini-HD] [ภาพ Master ไร้ซับฝัง] xXx: Return of Xander Cage (2017) ทลายแผนยึดโลก [Google Drive] [Cloud2Free] [1080p] [เสียงไทยโรง + ENG] [.MKV]


xXx: Return of Xander Cage (2017) ทลายแผนยึดโลก!!จากความสำเร็จของ 2 ภาคแรกที่กวาดรายได้ทั่วโลกมากกว่า 340 ล้านเหรียญสหรัฐฯ เตรียมพบกับการกลับมาอีกครั้งของแฟรนไชส์ xXxใน xXx:Return

of Xander Cage หรือ xXx (ทริปเปิ้ลเอ็กซ์): ทลายแผนยึดโลก โดย วิน ดีเซล กลับมารับบท แซนเดอร์ เคจ นักกีฬาเอ็กซ์ตรีมที่ผันตัวมาทำงานในรัฐบาล โดย
แซนเดอร์ต้องเผชิญหน้ากับเซียง นักรบสุดอันตราย ในภารกิจทวงคืนอาวุธอันตรายอย่างPandora’s Box

นอกเหนือจาก วิน ดีเซล ที่รับบทนักแสดงนำ ควบตำแหน่งผู้อำนวยการสร้างแล้ว ภาพยนตร์ยังได้ทีมนักแสดงชั้นนำมาร่วมงานด้วย อาทิ ดอนนี่ เยน (จาก Ip
Man), โทนี่ จา (จากองค์บาก และ Fast & Furious 7) , ดีพิกา พาดูโคน (Tamasha), รูบี้ โรส (จาก Orange is The New Black), นีน่า โดเบรฟ (จาก
The Vampire Diaries), คริส วู (จาก Somewhere Only We Know) ร่วมด้วย โทนี่ คอลเล็ตต์ (จาก The
Sixth Sense) และ ซามูเอล แอล. แจ็คสัน (จาก The Hateful Eight)

Format                      : Matroska
Format version              : Version 4 / Version 2
File size                   : 3.85 GiB
Duration                    : 1h 47mn
Overall bit rate            : 5 138 Kbps
Movie name                  : xXx.Return.of.Xander.Cage.2017.1080p.WEB-DL.DD5.1.H264_THRONG
Encoded date                : UTC 2017-05-02 16:19:04
Writing application         : mkvmerge v7.7.0 ( Six Voices ) 32bit built on Feb 28 2015 23:23:00
Writing library             : libebml v1.3.1 + libmatroska v1.4.2

Video
ID                          : 1
Format                      : AVC
Format/Info                 : Advanced Video Codec
Format profile              : High@L4
Format settings, CABAC      : Yes
Format settings, ReFrames   : 5 frames
Codec ID                    : V_MPEG4/ISO/AVC
Duration                    : 1h 47mn
Bit rate                    : 4 563 Kbps
Width                       : 1 916 pixels
Height                      : 796 pixels
Display aspect ratio        : 2.40:1
Frame rate mode             : Constant
Frame rate                  : 23.976 fps
Color space                 : YUV
Chroma subsampling          : 4:2:0
Bit depth                   : 8 bits
Scan type                   : Progressive
Bits/(Pixel*Frame)          : 0.125
Stream size                 : 3.41 GiB (89%)
Title                       : xXx.Return.of.Xander.Cage.2017.1080p.WEB-DL.DD5.1.H264_THRONG
Language                    : English
Default                     : Yes
Forced                      : No
Color range                 : Limited
Color primaries             : BT.709
Transfer characteristics    : BT.709
Matrix coefficients         : BT.709

Audio #1
ID                          : 2
Format                      : AC-3
Format/Info                 : Audio Coding 3
Mode extension              : CM (complete main)
Format settings, Endianness : Big
Codec ID                    : A_AC3
Duration                    : 1h 46mn
Bit rate mode               : Constant
Bit rate                    : 384 Kbps
Channel(s)                  : 6 channels
Channel positions           : Front: L C R, Side: L R, LFE
Sampling rate               : 48.0 KHz
Frame rate                  : 31.250 fps (1536 spf)
Compression mode            : Lossy
Stream size                 : 293 MiB (7%)
Title                       : English 5.1
Language                    : English
Default                     : No
Forced                      : No

Audio #2
ID                          : 3
Format                      : AC-3
Format/Info                 : Audio Coding 3
Mode extension              : CM (complete main)
Format settings, Endianness : Big
Codec ID                    : A_AC3
Duration                    : 1h 46mn
Bit rate mode               : Constant
Bit rate                    : 192 Kbps
Channel(s)                  : 2 channels
Channel positions           : Front: L R
Sampling rate               : 48.0 KHz
Frame rate                  : 31.250 fps (1536 spf)
Compression mode            : Lossy
Stream size                 : 146 MiB (4%)
Title                       : THRONG
Language                    : Thai
Default                     : Yes
Forced                      : Yes
Screenshot (แคปจากตัวไฟล์)

ขออภัย! เนื้อหาสำหรับ สมาชิก VIP เท่านั้น

Google ไดรฟ์
***:: Part :1 ::***
***:: Part :2 ::***
***:: Part :3 ::***
***:: Part :4 ::***
***:: Part :5 ::***
RAR Password one3up.com
ดูวิธีโหลดหนังฟรี คลิก