[Mini-HD] [Master แท้มาแล้ว] ทองดีฟันขาว Thong Dee Fun Khao (2017) [Master] [Google Drive] [Cloud2Free] [DVD Full Rip] [พากย์ไทยมาสเตอร์ 5.1] [.MKV]


เรื่องย่อ : ทองดี ฟันขาว ภาพยนตร์แอ็คชั่นพีเรียดอิงประวัติศาสตร์ ”ทองดีฟันขาว” จะเล่าเรื่องราวความมุ่งมั่นไม่ย่อท้อ, ความกล้าหาญจงรักภักดีในช่วงชีวิตสำคัญของ ”นายทองดีฟันขาว” นักสู้หัวใจแกร่งที่ความสามารถ, ฝีไม้ลายมวย และโชคชะตานำพาให้เขาได้เป็นทหารเอกคู่ใจแห่งพระเจ้าตากสินมหาราช และพลีชีพต่อสู้ปกป้องบ้านเมืองจนกลายเป็นวีรบุรุษของชาวไทยที่รู้จักกันในนาม ”พระยาพิชัยดาบหัก”

Format                                   : Matroska
Format version                           : Version 2
File size                                : 3.47 GiB
Duration                                 : 1 h 56 min
Overall bit rate mode                    : Variable
Overall bit rate                         : 4 252 kb/s
Encoded date                             : UTC 2017-05-03 13:57:51
Writing application                      : MakeMKV v1.10.5 win(x64-release)
Writing library                          : libmakemkv v1.10.5 (1.3.3/1.4.4) win(x64-release)
Original source medium                   : DVD-Video

Video
ID                                       : 1
ID in the original source medium         : 224 (0xE0)
Format                                   : MPEG Video
Format version                           : Version 2
Format profile                           : Main@Main
Format settings, BVOP                    : Yes
Format settings, Matrix                  : Custom
Format settings, GOP                     : M=3, N=15
Codec ID                                 : V_MPEG2
Codec ID/Info                            : MPEG 1 or 2 Video
Duration                                 : 1 h 56 min
Bit rate mode                            : Variable
Bit rate                                 : 3 800 kb/s
Maximum bit rate                         : 9 000 kb/s
Width                                    : 720 pixels
Height                                   : 576 pixels
Display aspect ratio                     : 16:9
Frame rate mode                          : Constant
Frame rate                               : 25.000 FPS
Standard                                 : PAL
Color space                              : YUV
Chroma subsampling                       : 4:2:0
Bit depth                                : 8 bits
Scan type                                : Progressive
Compression mode                         : Lossy
Bits/(Pixel*Frame)                       : 0.366
Time code of first frame                 : 00:00:00:00
Time code source                         : Group of pictures header
GOP, Open/Closed                         : Open
GOP, Open/Closed of first frame          : Closed
Stream size                              : 3.10 GiB (89%)
Writing library                          : TMPGEnc Video Mastering Works 5 Version. 5.0.5.32
Language                                 : English
Default                                  : No
Forced                                   : No
Color primaries                          : BT.601 PAL
Transfer characteristics                 : BT.470 System B, BT.470 System G
Matrix coefficients                      : BT.601

Audio
ID                                       : 2
ID in the original source medium         : 189 (0xBD)128 (0x80)
Format                                   : AC-3
Format/Info                              : Audio Coding 3
Format settings, Endianness              : Big
Codec ID                                 : A_AC3
Duration                                 : 1 h 56 min
Bit rate mode                            : Constant
Bit rate                                 : 448 kb/s
Channel(s)                               : 6 channels
Channel positions                        : Front: L C R, Side: L R, LFE
Sampling rate                            : 48.0 kHz
Frame rate                               : 31.250 FPS (1536 spf)
Bit depth                                : 16 bits
Compression mode                         : Lossy
Stream size                              : 374 MiB (11%)
Title                                    : Surround 5.1
Language                                 : Thai
Service kind                             : Complete Main
Default                                  : Yes
Forced                                   : No

Menu
00:00:00.000                             : en:Chapter 01
00:08:03.080                             : en:Chapter 02
00:17:58.280                             : en:Chapter 03
00:26:28.200                             : en:Chapter 04
00:37:29.440                             : en:Chapter 05
00:47:43.680                             : en:Chapter 06
00:53:51.920                             : en:Chapter 07
01:00:51.480                             : en:Chapter 08
01:12:23.640                             : en:Chapter 09
01:23:17.760                             : en:Chapter 10
01:32:29.480                             : en:Chapter 11
01:52:46.600                             : en:Chapter 12
Screenshot (แคปจากตัวไฟล์)
[vipcontent]
โหลดแบบ VIP PART เดียว
คลิก
ไม่ต้องรวมไฟล์ ไม่ต้องเปลี่ยนชื่อ โหลดแรงเต็มสปีดโหลดเสร็จดูได้เลยสมัคร VIP Download เริ่มต้นแค่ 50 บาท [ Click !! ]

[/vipcontent]

Google ไดรฟ์ (พิเศษสำหรับ VIP โหลดก่อน ฟรีพรุ้งนี้อัพให้)
***:: Part :1 ::***
***:: Part :2 ::***
***:: Part :3 ::***
***:: Part :4 ::***
RAR Password one3up.com
ดูวิธีโหลดหนังฟรี คลิก