[Mini-HD] [เสียงไทย MASTER iTunes มาแล้ว] The Great Wall (2016) เดอะ เกรท วอลล์ [Master] [Google Drive] [Cloud2Free] [1080p] [พากย์ไทยมาสเตอร์ iTunes + ENG] [.MKV]


เรื่องย่อ The Great Wall
เรื่องเริ่มต้นขึ้นที่การเดินทางมาถึงของพ่อค้า William Garin กับคู่หู Pero Tovar พวกเขาหนีการไล่ล่าของพวกชนเผ่ามาเจอกับกลุ่มภาคีไร้นาม
นำโดย General Shao ผู้ปักหลักดูแลกำแพงเมืองจีนจากตัวเทาเทีย  
ที่กำแพงเมืองจีนมีคนจีนพูดภาษาอังกฤษได้อย่างคล่องแคล่วสองคน คือแม่ทัพหญิง และกุนซือ Wang (Andy Lau หรือซูเปอร์สตาร์ “หลิวเต๋อ
หัว”) เพราะมี Ballard ผู้ติดอยู่ที่นี่กว่า 25 ปี เป็นครูสอนภาษา!!!
Format                      : Matroska
Format version              : Version 4 / Version 2
File size                   : 3.82 GiB
Duration                    : 1h 43mn
Overall bit rate            : 5 308 Kbps
Movie name                  : The.Great.Wall.2016.1080p.WEB-DL.AAC2.0.H264-FGT
Encoded date                : UTC 2017-05-04 04:17:57
Writing application         : mkvmerge v8.4.0 ( A better way to fly ) 64bit
Writing library             : libebml v1.3.1 + libmatroska v1.4.2

Video
ID                          : 1
Format                      : AVC
Format/Info                 : Advanced Video Codec
Format profile              : High@L4
Format settings, CABAC      : Yes
Format settings, ReFrames   : 5 frames
Codec ID                    : V_MPEG4/ISO/AVC
Duration                    : 1h 43mn
Bit rate                    : 4 533 Kbps
Width                       : 1 916 pixels
Height                      : 800 pixels
Display aspect ratio        : 2.40:1
Frame rate mode             : Constant
Frame rate                  : 23.976 (23976/1000) fps
Color space                 : YUV
Chroma subsampling          : 4:2:0
Bit depth                   : 8 bits
Scan type                   : Progressive
Bits/(Pixel*Frame)          : 0.123
Stream size                 : 3.26 GiB (85%)
Title                       : The.Great.Wall.2016.1080p.WEB-DL.AAC2.0.H264-FGT.zuhada
Language                    : English
Default                     : Yes
Forced                      : No
Color range                 : Limited
Color primaries             : BT.709
Transfer characteristics    : BT.709
Matrix coefficients         : BT.709

Audio #1
ID                          : 2
Format                      : AAC
Format/Info                 : Advanced Audio Codec
Format profile              : LC
Codec ID                    : A_AAC
Duration                    : 1h 42mn
Bit rate                    : 196 Kbps
Channel(s)                  : 2 channels
Channel positions           : Front: L R
Sampling rate               : 48.0 KHz
Frame rate                  : 46.875 fps (1024 spf)
Compression mode            : Lossy
Stream size                 : 144 MiB (4%)
Title                       : The.Great.Wall.2016.1080p.WEB-DL.AAC2.0.H264-FGT.zuhada
Language                    : English
Default                     : No
Forced                      : No

Audio #2
ID                          : 4
Format                      : AAC
Format/Info                 : Advanced Audio Codec
Format profile              : LC
Codec ID                    : A_AAC
Duration                    : 1h 43mn
Bit rate                    : 192 Kbps
Channel(s)                  : 2 channels
Channel positions           : Front: L R
Sampling rate               : 44.1 KHz
Frame rate                  : 43.066 fps (1024 spf)
Compression mode            : Lossy
Stream size                 : 142 MiB (4%)
Title                       : zuhada
Language                    : Thai
Default                     : No
Forced                      : No

Audio #3
ID                          : 5
Format                      : AC-3
Format/Info                 : Audio Coding 3
Mode extension              : CM (complete main)
Format settings, Endianness : Big
Codec ID                    : A_AC3
Duration                    : 1h 43mn
Bit rate mode               : Constant
Bit rate                    : 384 Kbps
Channel(s)                  : 2 channels
Channel positions           : Front: L R
Sampling rate               : 48.0 KHz
Frame rate                  : 31.250 fps (1536 spf)
Compression mode            : Lossy
Stream size                 : 283 MiB (7%)
Title                       : zuhada
Language                    : Thai
Default                     : Yes
Forced                      : No

Text
ID                          : 3
Format                      : UTF-8
Codec ID                    : S_TEXT/UTF8
Codec ID/Info               : UTF-8 Plain Text
Duration                    : 1h 30mn
Bit rate                    : 32 bps
Count of elements           : 695
Stream size                 : 21.5 KiB (0%)
Title                       : zuhada
Language                    : English
Default                     : Yes
Forced                      : No
Screenshot (แคปจากตัวไฟล์)
[vipcontent]
โหลดแบบ VIP PART เดียว
คลิก
ไม่ต้องรวมไฟล์ ไม่ต้องเปลี่ยนชื่อ โหลดแรงเต็มสปีดโหลดเสร็จดูได้เลยสมัคร VIP Download เริ่มต้นแค่ 50 บาท [ Click !! ]

[/vipcontent]

Google ไดรฟ์
***:: Part :1 ::***
***:: Part :2 ::***
***:: Part :3 ::***
***:: Part :4 ::***
***:: Part :5 ::***
RAR Password one3up.com
ดูวิธีโหลดหนังฟรี คลิก