[Mini-HD] [ภาพใหม่ชัดระดับมาสเตอร์] The Fate of the Furious (2017) เร็ว..แรงทะลุนรก 8 [Google Drive] [Cloud2Free] [1080p] [พากย์ไทยโรง + เสียงอังกฤษ] [บรรยายจีนฝัง] [.MKV]


]The Fate of the Furious ดอมและเล็ตตี้อยู่ในช่วงฮันนีมูน ส่วนไบรอันและมีอาก็ตัดสินใจกลับไปใช้ชีวิตครอบครัวของตัวเอง ส่วนคนอื่น ๆ ก็พ้นจากข้อกล่าวหา กลับมาใช้ชีวิตอย่างปกติ แต่เมื่อมีสตรีลึกลับ (เจ้าของรางวัลออสการ์ ชาร์ลิซ เธอรอน) เข้ามาล่อลวงดอมสู่โลกอาชญากรรรม โดยที่เขาไม่มีทางเลือกและกลายเป็นคนทรยศครอบครัว พวกเขาต้องเผชิญกับการทดสอบอย่างที่ไม่เคยพบมาก่อน

จากคิวบา มาถึงนิวยอร์ก และสู่พื้นราบน้ำแข็งบนทะเลบาเรนทส์ พวกเขาต้องซิ่งสลับไปมาข้ามโลก เพื่อหยุดยั้งผู้นิยมลัทธิอนาธิปไตยที่ก่อให้เกิดความวุ่นวายในโลก และนำดอมผู้ทำให้พวกเขารวมเป็นครอบครัวกลับมา

General
Unique ID                   : 252039157282427546608956620903690482556 (0xBD9CF9DC3D434DD1825592B976EF337C)
Complete name               : The.Fate.of.the.Furious.2017.1080p.HD.TC.x264.CHINESESUB.THR-CPT.mkv
Format                      : Matroska
Format version              : Version 4 / Version 2
File size                   : 1.59 GiB
Duration                    : 2 h 8 min
Overall bit rate            : 1 780 kb/s
Movie name                  : Modified BY Captain
Encoded date                : UTC 2017-05-09 09:33:20
Writing application         : mkvmerge v10.0.0 ( To Drown In You ) 64bit
Writing library             : libebml v1.3.4 + libmatroska v1.4.5

Video
ID                          : 1
Format                      : AVC
Format/Info                 : Advanced Video Codec
Format profile              : High@L3.1
Format settings, CABAC      : Yes
Format settings, ReFrames   : 2 frames
Codec ID                    : V_MPEG4/ISO/AVC
Duration                    : 2 h 8 min
Bit rate                    : 1 280 kb/s
Width                       : 1 920 pixels
Height                      : 1 080 pixels
Display aspect ratio        : 16:9
Frame rate mode             : Constant
Frame rate                  : 25.000 FPS
Color space                 : YUV
Chroma subsampling          : 4:2:0
Bit depth                   : 8 bits
Scan type                   : Progressive
Bits/(Pixel*Frame)          : 0.025
Stream size                 : 1.13 GiB (71%)
Writing library             : x264 core 142 r2491 24e4fed
Encoding settings           : cabac=1 / ref=2 / deblock=1:0:0 / analyse=0x3:0x113 / me=hex / subme=7 / psy=1 / psy_rd=1.00:0.00 / mixed_ref=1 / me_range=16 / chroma_me=1 / trellis=1 / 8x8dct=1 / cqm=0 / deadzone=21,11 / fast_pskip=1 / chroma_qp_offset=-2 / threads=12 / lookahead_threads=2 / sliced_threads=0 / nr=0 / decimate=1 / interlaced=0 / bluray_compat=0 / constrained_intra=0 / bframes=3 / b_pyramid=0 / b_adapt=1 / b_bias=0 / direct=1 / weightb=1 / open_gop=0 / weightp=2 / keyint=250 / keyint_min=25 / scenecut=40 / intra_refresh=0 / rc_lookahead=40 / rc=abr / mbtree=1 / bitrate=1280 / ratetol=1.0 / qcomp=0.60 / qpmin=0 / qpmax=69 / qpstep=4 / vbv_maxrate=17500 / vbv_bufsize=17500 / nal_hrd=none / filler=0 / ip_ratio=1.40 / aq=1:1.00
Language                    : Korean
Default                     : Yes
Forced                      : No
Color range                 : Limited
Color primaries             : BT.709
Transfer characteristics    : BT.709
Matrix coefficients         : BT.709

Audio #1
ID                          : 2
Format                      : AC-3
Format/Info                 : Audio Coding 3
Format settings, Endianness : Big
Codec ID                    : A_AC3
Duration                    : 2 h 8 min
Bit rate mode               : Constant
Bit rate                    : 192 kb/s
Channel(s)                  : 2 channels
Channel positions           : Front: L R
Sampling rate               : 48.0 kHz
Frame rate                  : 31.250 FPS (1536 spf)
Bit depth                   : 16 bits
Compression mode            : Lossy
Stream size                 : 176 MiB (11%)
Title                       : AC-3 ThaiRong 2.0
Language                    : Thai
Service kind                : Complete Main
Default                     : Yes
Forced                      : No

Audio #2
ID                          : 3
Format                      : AAC
Format/Info                 : Advanced Audio Codec
Format profile              : LC
Codec ID                    : A_AAC
Duration                    : 2 h 8 min
Bit rate                    : 318 kb/s
Channel(s)                  : 2 channels
Channel positions           : Front: L R
Sampling rate               : 44.1 kHz
Frame rate                  : 43.066 FPS (1024 spf)
Compression mode            : Lossy
Stream size                 : 291 MiB (18%)
Title                       : AAC English 2.0
Language                    : English
Default                     : No
Forced                      : No
Screenshot (แคปจากตัวไฟล์)
[vipcontent]
โหลดแบบ VIP PART เดียว
คลิก
ไม่ต้องรวมไฟล์ ไม่ต้องเปลี่ยนชื่อ โหลดแรงเต็มสปีดโหลดเสร็จดูได้เลยสมัคร VIP Download เริ่มต้นแค่ 50 บาท [ Click !! ]

[/vipcontent]

Google ไดรฟ์
***:: Part :1 ::***
***:: Part :2 ::***
***:: Part :3 ::***
RAR Password one3up.com
ดูวิธีโหลดหนังฟรี คลิก