[Zoom] [ซูมชัดมาแล้ว] Pirates of the Caribbean: Dead Men Tell No Tales (2017) สงครามแค้นโจรสลัดไร้ชีพ [Google Drive] [Cloud2Free] [Encode.H.264.450p] [พากย์ไทยโรง + เสียงอังกฤษ 2.0] [.MKV]


Pirates of the Caribbean: Salazar s Revenge กำกับโดย โยคิม รอนนิง และ เอสเพน แซนด์เบิร์ก มุ่งหน้าเปิดศึกแห่งมหาสมุทรบทใหม่โดยมี “ตรีศูลของโพไซดอน” 
อาวุธสำคัญของเทพแห่งกรีกเป็นศูนย์กลางของเรื่อง ซึ่งใครที่ได้ครอบครองมันจะมีพลานุภาพเหนือทุกสิ่งทุกอย่างใต้ท้องทะเล 
กัปตันแจ็ค สแปร์โรว์ต้องเดินทางออกตามหามันเพื่อล้างคำสาปและหนีการตามล่าของกัปตันซาลาซ่า มหาวายร้ายที่หลบหนีจากแดนแห่งความตายกลับมาล้างแค้น
และหมายฆ่ากัปตันเดินเรือทุกคนบนโลก โดยเฉพาะ กัปตัน แจ็ค สแปร์โรว์ ที่มีอดีตบาดหมาง ยากที่จะให้อภัยได้นั่นเอง

◄   ◄    ชัด HD 480p TS MKV ►   ►         
พากย์ไทยโรง + เสียงอังกฤษ 2.0, ฝังซับจีน
ขอบคุณเสียงไทยโรง จากคุณ tsu311 (ขอบคุณมากจ้า..❤   ❤   ❤   )

Format                                   : Matroska
Format version                           : Version 4 / Version 2
File size                                : 2.38 GiB
Duration                                 : 1 h 58 min
Overall bit rate mode                    : Variable
Overall bit rate                         : 2 885 kb/s
Movie name                               : Modified by macut18
Encoded date                             : UTC 2017-06-02 01:52:52
Writing application                      : mkvmerge v9.9.0 ( Pick Up ) 64bit
Writing library                          : libebml v1.3.4 + libmatroska v1.4.5

Video
ID                                       : 1
Format                                   : AVC
Format/Info                              : Advanced Video Codec
Format profile                           : High@L4.2
Format settings, CABAC                   : Yes
Format settings, ReFrames                : 4 frames
Codec ID                                 : V_MPEG4/ISO/AVC
Duration                                 : 1 h 58 min
Bit rate mode                            : Variable
Bit rate                                 : 2 500 kb/s
Maximum bit rate                         : 62.5 Mb/s
Width                                    : 880 pixels
Height                                   : 388 pixels
Display aspect ratio                     : 2.25:1
Frame rate mode                          : Constant
Frame rate                               : 25.000 FPS
Color space                              : YUV
Chroma subsampling                       : 4:2:0
Bit depth                                : 8 bits
Scan type                                : Progressive
Bits/(Pixel*Frame)                       : 0.293
Stream size                              : 2.06 GiB (87%)
Writing library                          : x264 core 148 r2744 b97ae06
Encoding settings                        : cabac=1 / ref=5 / deblock=1:0:0 / analyse=0x3:0x133 / me=umh / subme=9 / psy=1 / psy_rd=1.00:0.00 / mixed_ref=1 / me_range=18 / chroma_me=1 / trellis=2 / 8x8dct=1 / cqm=0 / deadzone=21,11 / fast_pskip=0 / chroma_qp_offset=-2 / threads=16 / lookahead_threads=1 / sliced_threads=0 / slices=4 / nr=0 / decimate=1 / interlaced=0 / bluray_compat=0 / constrained_intra=0 / bframes=3 / b_pyramid=1 / b_adapt=2 / b_bias=0 / direct=3 / weightb=1 / open_gop=0 / weightp=2 / keyint=250 / keyint_min=25 / scenecut=40 / intra_refresh=0 / rc_lookahead=40 / rc=abr / mbtree=1 / bitrate=2500 / ratetol=1.0 / qcomp=0.60 / qpmin=10 / qpmax=51 / qpstep=4 / vbv_maxrate=62500 / vbv_bufsize=78125 / nal_hrd=vbr / filler=0 / ip_ratio=1.40 / aq=1:1.00
Default                                  : Yes
Forced                                   : No
Color range                              : Full
Color primaries                          : BT.709
Transfer characteristics                 : BT.709
Matrix coefficients                      : BT.709

Audio #1
ID                                       : 2
Format                                   : AAC
Format/Info                              : Advanced Audio Codec
Format profile                           : LC
Codec ID                                 : A_AAC
Duration                                 : 1 h 58 min
Bit rate                                 : 192 kb/s
Channel(s)                               : 2 channels
Channel positions                        : Front: L R
Sampling rate                            : 44.1 kHz
Frame rate                               : 43.066 FPS (1024 spf)
Compression mode                         : Lossy
Stream size                              : 162 MiB (7%)
Language                                 : Thai
Default                                  : No
Forced                                   : No

Audio #2
ID                                       : 3
Format                                   : MPEG Audio
Format version                           : Version 1
Format profile                           : Layer 3
Codec ID                                 : A_MPEG/L3
Codec ID/Hint                            : MP3
Duration                                 : 1 h 58 min
Bit rate mode                            : Constant
Bit rate                                 : 192 kb/s
Channel(s)                               : 2 channels
Sampling rate                            : 44.1 kHz
Frame rate                               : 38.281 FPS (1152 spf)
Compression mode                         : Lossy
Delay relative to video                  : 11 ms
Stream size                              : 162 MiB (7%)
Language                                 : English
Default                                  : Yes
Forced                                   : No
Screenshot (แคปจากตัวไฟล์)

ขออภัย! เนื้อหาสำหรับ สมาชิก VIP เท่านั้น

Google ไดรฟ์
***:: Part :1 ::***
***:: Part :2 ::***
***:: Part :3 ::***
***:: Part :4 ::***
***:: Part :5 ::***
RAR Password one3up.com
ดูวิธีโหลดหนังฟรี คลิก