[Zoom] [ซูมชัดมาแล้ว] Wonder Woman (2017) วันเดอร์ วูแมน [Google Drive] [Cloud2Free] [Encode.H.264.450p] [พากย์ไทยโรง + เสียงอังกฤษ 2.0] [.MKV]


Wonder Woman ก่อนที่เธอจะกลายเป็นสาวน้อยมหัศจรรย์นามว่า Wonder Woman เธอคือ ไดอาน่า เจ้าหญิงแห่งอะเมซอนผู้ฝึกตนเป็นนักรบไร้พ่ายบนเกาะสวรรค์ (Paradise Island) ทว่าเมื่อเกิดเหตุเครื่องบินรบของกองทัพสหรัฐตกบริเวณชายฝั่งของเกาะ ทำให้เธอได้รู้เรื่องราวของมหาสงครามอันรุนแรงที่เกิดขึ้นในโลกภายนอก ไดอาน่าจึงตัดสินใจออกจากเกาะ ตั้งใจที่จะหยุดยั้งสงครามเหล่านี้ให้จงได้ มหากาพย์การต่อสู้เพื่อหยุดยั้งทุกสงคราม จะทำให้เธอค้นพบพลังที่แท้จริง และค้นพบเส้นทางชีวิตที่รอคอยเธออยู่เบื้องหน้าในอนาคต

General
Unique ID                   : 189918701093423690238550726598577651169 (0x8EE102E76845932FBBF85F26A5CC7DE1)
Complete name               : Wonder.Woman.2017.HDTS.x264.ThaiRong-CpT.mkv
Format                      : Matroska
Format version              : Version 4 / Version 2
File size                   : 1.74 GiB
Duration                    : 2 h 10 min
Overall bit rate            : 1 912 kb/s
Movie name                  : Modified By Captain@SiamBit
Encoded date                : UTC 2017-06-07 14:32:55
Writing application         : mkvmerge v10.0.0 ( To Drown In You ) 64bit
Writing library             : libebml v1.3.4 + libmatroska v1.4.5

Video
ID                          : 1
Format                      : AVC
Format/Info                 : Advanced Video Codec
Format profile              : High@L3
Format settings, CABAC      : Yes
Format settings, ReFrames   : 8 frames
Codec ID                    : V_MPEG4/ISO/AVC
Duration                    : 2 h 10 min
Bit rate                    : 1 621 kb/s
Nominal bit rate            : 1 501 kb/s
Width                       : 720 pixels
Height                      : 312 pixels
Display aspect ratio        : 2.35:1
Frame rate mode             : Constant
Frame rate                  : 29.970 (30000/1001) FPS
Color space                 : YUV
Chroma subsampling          : 4:2:0
Bit depth                   : 8 bits
Scan type                   : Progressive
Bits/(Pixel*Frame)          : 0.241
Stream size                 : 1.48 GiB (85%)
Title                       : Wonder.Woman.2017.HDTS.x264.ThaiRong-CpT
Writing library             : x264 core 148 r2705 3f5ed56
Encoding settings           : cabac=1 / ref=8 / deblock=1:0:0 / analyse=0x3:0x113 / me=umh / subme=9 / psy=1 / psy_rd=1.00:0.00 / mixed_ref=1 / me_range=24 / chroma_me=1 / trellis=1 / 8x8dct=1 / cqm=0 / deadzone=21,11 / fast_pskip=1 / chroma_qp_offset=-2 / threads=6 / lookahead_threads=1 / sliced_threads=0 / nr=0 / decimate=1 / interlaced=0 / bluray_compat=0 / constrained_intra=0 / bframes=5 / b_pyramid=2 / b_adapt=2 / b_bias=0 / direct=3 / weightb=1 / open_gop=0 / weightp=2 / keyint=300 / keyint_min=29 / scenecut=40 / intra_refresh=0 / rc_lookahead=60 / rc=2pass / mbtree=1 / bitrate=1501 / ratetol=1.0 / qcomp=0.60 / qpmin=0 / qpmax=69 / qpstep=4 / cplxblur=20.0 / qblur=0.5 / ip_ratio=1.40 / aq=2:1.00
Language                    : English
Default                     : Yes
Forced                      : No

Audio #1
ID                          : 2
Format                      : AC-3
Format/Info                 : Audio Coding 3
Format settings, Endianness : Big
Codec ID                    : A_AC3
Duration                    : 2 h 10 min
Bit rate mode               : Constant
Bit rate                    : 192 kb/s
Channel(s)                  : 2 channels
Channel positions           : Front: L R
Sampling rate               : 48.0 kHz
Frame rate                  : 31.250 FPS (1536 spf)
Bit depth                   : 16 bits
Compression mode            : Lossy
Stream size                 : 179 MiB (10%)
Title                       : AC3 THR 2.0 By Captain
Language                    : Thai
Service kind                : Complete Main
Default                     : Yes
Forced                      : No

Audio #2
ID                          : 3
Format                      : AAC
Format/Info                 : Advanced Audio Codec
Format profile              : LC
Codec ID                    : A_AAC
Duration                    : 2 h 10 min
Bit rate                    : 96.0 kb/s
Channel(s)                  : 2 channels
Channel positions           : Front: L R
Sampling rate               : 48.0 kHz
Frame rate                  : 46.875 FPS (1024 spf)
Compression mode            : Lossy
Delay relative to video     : 9 ms
Stream size                 : 89.4 MiB (5%)
Title                       : AAC English 2.0
Language                    : English
Default                     : No
Forced                      : No
Screenshot (แคปจากตัวไฟล์)
[vipcontent]
โหลดแบบ VIP PART เดียว
คลิก
ไม่ต้องรวมไฟล์ ไม่ต้องเปลี่ยนชื่อ โหลดแรงเต็มสปีดโหลดเสร็จดูได้เลยสมัคร VIP Download เริ่มต้นแค่ 50 บาท [ Click !! ]

[/vipcontent]

Google ไดรฟ์
***:: Part :1 ::***
***:: Part :2 ::***
RAR Password one3up.com
ดูวิธีโหลดหนังฟรี คลิก